[Login] or [Signup]
Login
Username:
Password:
[Signup]
[Recover Account]


Poll


You must be logged in to view polls



Torrent Details For "Hotel Transylvania 3 A Monster Vacation 2018 1080p HC HDRip x264 [MW]"

Hotel Transylvania 3 A Monster Vacation 2018 1080p HC HDRip x264 [MW]

Download this torrent | Magnet Download
Health:
Seeds: 191
Leechers: 41
Completed: 19,144 
Last Checked: 12-10-2018 19:38:47
External Torrent
Update Stats
Download Magnet


Poster


iMDB
Imdb Picture Title: Hotel Transylvania 3: Summer Vacation
Year: 2018
Runtime: 97 minutes
Votes: 2276
Rating: 6.4/10
Language: English
Country: USA
All Genres: Animation, Comedy, Family, Fantasy
Plot Outline: Mavis surprises Dracula with a family voyage on a luxury Monster Cruise Ship so he can take a vacation from providing everyone else's vacation at the hotel. The rest of Drac's Pack cannot resist going along. But once they leave port, romance arises when Dracula meets the mysterious ship Captain, Ericka. Now it's Mavis' turn to play the overprotective parent, keeping her dad and Ericka apart. Little do they know that his "too good to be true" love interest is actually a descendant of Abraham Van Helsing, ancient nemesis to Dracula and all other monsters.


Tagline: He's going to need a vacation after this vacation.
Director: Genndy Tartakovsky
Writing By: Michael McCullers,Genndy Tartakovsky,Todd Durham,
Produced By: Michelle Murdocca,Carey Smith,
Music: Mark Mothersbaugh Tiƫsto
Cast:
Adam Sandler as Dracula
Andy Samberg as Johnny
Selena Gomez as Mavis
Kevin James as Frank
Fran Drescher as Eunice
Steve Buscemi as Wayne
Molly Shannon as Wanda
David Spade as Griffin
Keegan-Michael Key as Murray
Jim Gaffigan as Van Helsing
Trailers:
Sneak Peek
Trailer #2
Trailer #1


Watch-Free-HD     Download

Details
Name:Hotel Transylvania 3 A Monster Vacation 2018 1080p HC HDRip x264 [MW]
Description:

 


Generala
Format                                   : Matroska
Format version                           : Version 4 / Version 2
File size                                : 1.53 GiB
Duration                                 : 1 h 32 min
Overall bit rate                         : 2 366 kb/s

Video
ID                                       : 1
Format                                   : AVC
Format/Info                              : Advanced Video Codec
Format profile                           : [email protected]
Format settings                          : CABAC / 4 Ref Frames
Format settings, CABAC                   : Yes
Format settings, RefFrames               : 4 frames
Codec ID                                 : V_MPEG4/ISO/AVC
Duration                                 : 1 h 32 min
Bit rate                                 : 2 200 kb/s
Width                                    : 1 920 pixels
Height                                   : 1 080 pixels
Display aspect ratio                     : 16:9
Frame rate mode                          : Constant
Frame rate                               : 30.000 FPS
Color space                              : YUV
Chroma subsampling                       : 4:2:0
Bit depth                                : 8 bits
Scan type                                : Progressive
Bits/(Pixel*Frame)                       : 0.035
Stream size                              : 1.41 GiB (92%)
Writing library                          : x264 core 155 r2901 7d0ff22
Default                                  : Yes
Forced                                   : No

Audio
ID                                       : 2
Format                                   : AAC
Format/Info                              : Advanced Audio Codec
Format profile                           : LC
Codec ID                                 : A_AAC-2
Duration                                 : 1 h 32 min
Bit rate                                 : 192 kb/s
Channel(s)                               : 2 channels
Channel positions                        : Front: L R
Sampling rate                            : 48.0 kHz
Frame rate                               : 46.875 FPS (1024 SPF)
Compression mode                         : Lossy
Stream size                              : 128 MiB (8%)
Language                                 : English
Default                                  : Yes
Forced                                   : No


 https://pichub.site/image/E7toT
 https://pichub.site/image/E7iiV
 https://pichub.site/image/E7zbN
 https://pichub.site/image/E7AcD
 https://pichub.site/image/E7BUZ
 https://pichub.site/image/E7K9g

Category:Movies > HDRips
Lang:English  English
Total Size:1.53 GB
Info Hash:86133857aff8dd1540745e38a4f9d82aa9060822
Added By:Freaky
Date Added:17-09-2018 16:22:37
Views:1,705
Hits:146

Download Torrent

Ratings:Not Yet Rated (Log in to rate it)


Tracker:
udp://tracker.coppersurfer.tk:6969/announce


File List: 


Comments

No comments still posted

Powered by 10 Hamsters v2-svn -|- Page Generated In 0.181466 secs.
-|- RSS FEED
Theme By: Nikkbu